Ergebnis 1 bis 2 von 2

Thema: Cirque du Soleil O 2017 AC3 720p HDTV x264 - iND

  1. #1
    balti-hut-warwick.co.uk Pro Member
    Registriert seit
    28.09.14
    Beiträge
    1.633
    Bedankt
    0
    Danke erhalten: 683

    Cirque du Soleil O 2017 AC3 720p HDTV x264 - iND



    Cirque du Soleil O 2017 AC3 720p HDTV x264 - iND

    Nach fast 20 Jahren Laufzeit im legendären Bellagio in Las Vegas mit Millionen Zuschauern wird die erfolgreichste Show des Cirque du Soleil endlich verfilmt und ins Fernsehen gebracht. Eine Bühne mit über 5.000 Kubikmetern Wasser aus dem Bellagio Lake, bei der 150 Techniker für den reibungslosen Ablauf der Show sorgen, und 77 außerordentliche Athleten, die über und unter Wasser ein einzigartiges Fest des Theaters und des Zirkus feiern – dies sind die Zutaten, die in mittlerweile fast 10.000 Aufführungen jeden Abend aufs Neue das Publikum faszinieren. Die wundersame Geschichte von „O“ dreht sich um Guifà, einen Theaterliebhaber, dem zunächst nicht klar ist, dass er unfreiwillig durch die Welt von „O“ führen würde. Kaum taucht er auf der Bühne auf, wird er buchstäblich vom Gedächtnis der Zeit fortgetragen. Und während sein Lachen durch das Theater hallt, verwandelt sich diese Bühne in ein Universum des Wassers, in dem amphibische Kreaturen ihr Unwesen treiben. In diesem Moment beginnt eine Reise ans Ende des Lebens

    Kurzinfo:
    Video: 7 993 Kbps, [email protected], 50.000 fps
    Auflösung: 1280x720, 16:9
    Audio: Deutsch AC3 5.1 448 kbps

    Media-Info:
    Code:
    General
    Unique ID                                : 298095293319282257950696935263428630302 (0xE04310AEE12A5B42B9433D5B55D3571E)
    Complete name                            : Cirque du Soleil_ O_2017_720p_50fps.mkv
    Format                                   : Matroska
    Format version                           : Version 4 / Version 2
    File size                                : 5.22 GiB
    Duration                                 : 1h 33mn
    Overall bit rate                         : 7 993 Kbps
    Encoded date                             : UTC 2017-12-30 23:03:49
    Writing application                      : TMPGEnc MPEG Smart Renderer
    Writing library                          : TMPGEnc MPEG Smart Renderer
    
    Video
    ID                                       : 1
    Format                                   : AVC
    Format/Info                              : Advanced Video Codec
    Format profile                           : [email protected]
    Format settings, CABAC                   : Yes
    Format settings, ReFrames                : 4 frames
    Codec ID                                 : V_MPEG4/ISO/AVC
    Duration                                 : 1h 33mn
    Bit rate                                 : 7 386 Kbps
    Width                                    : 1 280 pixels
    Height                                   : 720 pixels
    Display aspect ratio                     : 16:9
    Frame rate mode                          : Constant
    Frame rate                               : 50.000 fps
    Standard                                 : Component
    Color space                              : YUV
    Chroma subsampling                       : 4:2:0
    Bit depth                                : 8 bits
    Scan type                                : Progressive
    Bits/(Pixel*Frame)                       : 0.160
    Stream size                              : 4.82 GiB (92%)
    Default                                  : Yes
    Forced                                   : No
    Color range                              : Limited
    Color primaries                          : BT.709
    Transfer characteristics                 : BT.709
    Matrix coefficients                      : BT.709
    
    Audio
    ID                                       : 2
    Format                                   : AC-3
    Format/Info                              : Audio Coding 3
    Mode extension                           : CM (complete main)
    Format settings, Endianness              : Big
    Codec ID                                 : A_AC3
    Duration                                 : 1h 33mn
    Bit rate mode                            : Constant
    Bit rate                                 : 448 Kbps
    Channel(s)                               : 6 channels
    Channel positions                        : Front: L C R, Side: L R, LFE
    Sampling rate                            : 48.0 KHz
    Compression mode                         : Lossy
    Stream size                              : 299 MiB (6%)
    Default                                  : Yes
    Forced                                   : No
    
    Menu


    Dauer: 94 Min | Format: mkv | Größe: 5,37 GB

    Download Share-online.biz:

    Passwort:
    kein Passwort notwendig
    Geändert von flossZ (04.01.19 um 21:04 Uhr)

  2. Folgende Benutzer haben sich bei flossZ für diesen Beitrag bedankt:

    charlygo (26.12.18)

  3. #Free Download
    Power Free Uploader
    Registriert seit
    16.07.2014
    Beiträge
    2417
     

  4. #2
    balti-hut-warwick.co.uk Pro Member
    Registriert seit
    28.09.14
    Beiträge
    1.633
    Bedankt
    0
    Danke erhalten: 683
    Linkverschlüssler ausgetauscht und wieder online!

Berechtigungen

  • Neue Themen erstellen: Nein
  • Themen beantworten: Nein
  • Anhänge hochladen: Nein
  • Beiträge bearbeiten: Nein
  •