Ergebnis 1 bis 2 von 2

Thema: Cirque du Soleil Delirium 2008 AC3 720p HDTV x264 - iND

  1. #1
    balti-hut-warwick.co.uk Pro Member
    Registriert seit
    28.09.14
    Beiträge
    1.633
    Bedankt
    0
    Danke erhalten: 683

    Cirque du Soleil Delirium 2008 AC3 720p HDTV x264 - iND



    Cirque du Soleil Delirium 2008 AC3 720p HDTV x264 - iND

    Delirium bot eine atemberaubende Mischung aus Musik, Gesang, Tanz, Akrobatik, Multimedia-Projektionen und vielem mehr. Ein Mann schwebt an einem Ballon durch die Luft und lockt in die Welt der Träume. Am Boden regiert ein Faun auf Stelzen. Gegenspieler zweier Welten, die durch den Abend führen. Die Macher von “Delirium”, Michel Lemieux und Victor Pilon, kombinieren die artistischen Höchstleistungen mit virtuellen Bilderfluten. Arme strecken sich aus dem Urnebel dem Publikum entgegen, aus einem galaktischen Sternennebel treten zwei Trommler heraus, sie geben den Rhythmus für die Band und vielgestaltige Sänger vor. Herztöne pulsieren. Feuer trifft Wasser, die Wüste treibt fantastisch wuchernde Blüten. Das Wasser sprudelt, steigt auf, bis hinter dem Gazevorhang die reale Welt in milchiges Blau gehüllt erscheint. Eingespielte Videobilder erzählen vom Werden und Vergehen. Kanadas magischer Kulturexport Cirque du Soleil hat seine Poesie und mystische Illusion zu einem universellen Markenzeichen entwickelt und mit “Delirium” erneut ein Fest der Sinne gefeiert. Dies ist eine HDTV Aufzeichnung von ARTE HD der letzten Vorstellung von DELIRIUM am 20. April 2008 in London.

    Kurzinfo:
    Video: 4400 kbps, 25.000 fps, [email protected]
    Auflösung: 1280x720, 16:9
    Audio 1: AC3 5.1 448 kbps
    Audio 2: AC3 2.0 256 kbps

    Media-Info:
    Code:
    General
    Unique ID                                : 207776898836734275611827466741110579978 (0x9C506008017A5249BCB3F72256E4A30A)
    Complete name                            : Cirque_Du_Solei_Delirium.mkv
    Format                                   : Matroska
    Format version                           : Version 2
    File size                                : 3.07 GiB
    Duration                                 : 1h 41mn
    Overall bit rate                         : 4 353 Kbps
    Encoded date                             : UTC 2011-01-06 02:01:11
    Writing application                      : mkvmerge v4.0.0 ('The Stars were mine') gebaut am Jun  5 2010 17:44:09
    Writing library                          : libebml v1.0.0 + libmatroska v1.0.0
    
    Video
    ID                                       : 1
    Format                                   : AVC
    Format/Info                              : Advanced Video Codec
    Format profile                           : [email protected]
    Format settings, CABAC                   : Yes
    Format settings, ReFrames                : 3 frames
    Codec ID                                 : V_MPEG4/ISO/AVC
    Duration                                 : 1h 41mn
    Bit rate                                 : 3 563 Kbps
    Width                                    : 1 280 pixels
    Height                                   : 720 pixels
    Display aspect ratio                     : 16:9
    Frame rate mode                          : Constant
    Frame rate                               : 50.000 fps
    Color space                              : YUV
    Chroma subsampling                       : 4:2:0
    Bit depth                                : 8 bits
    Scan type                                : Progressive
    Bits/(Pixel*Frame)                       : 0.077
    Stream size                              : 2.52 GiB (82%)
    Title                                    : Video
    Default                                  : Yes
    Forced                                   : No
    
    Audio #1
    ID                                       : 2
    Format                                   : AC-3
    Format/Info                              : Audio Coding 3
    Mode extension                           : CM (complete main)
    Format settings, Endianness              : Big
    Codec ID                                 : A_AC3
    Duration                                 : 1h 41mn
    Bit rate mode                            : Constant
    Bit rate                                 : 256 Kbps
    Channel(s)                               : 2 channels
    Channel positions                        : Front: L R
    Sampling rate                            : 48.0 KHz
    Compression mode                         : Lossy
    Delay relative to video                  : 24ms
    Stream size                              : 185 MiB (6%)
    Title                                    : AC3_ 2.0
    Default                                  : Yes
    Forced                                   : No
    
    Audio #2
    ID                                       : 3
    Format                                   : AC-3
    Format/Info                              : Audio Coding 3
    Mode extension                           : CM (complete main)
    Format settings, Endianness              : Big
    Codec ID                                 : A_AC3
    Duration                                 : 1h 41mn
    Bit rate mode                            : Constant
    Bit rate                                 : 448 Kbps
    Channel(s)                               : 6 channels
    Channel positions                        : Front: L C R, Side: L R, LFE
    Sampling rate                            : 48.0 KHz
    Compression mode                         : Lossy
    Delay relative to video                  : 24ms
    Stream size                              : 324 MiB (10%)
    Title                                    : AC3_5.1
    Default                                  : No
    Forced                                   : No


    Dauer: 101 Min | Format: mkv | Größe: 3,16 GB

    Download Share-online.biz:

    Passwort:
    movie-blog.org
    Geändert von flossZ (04.01.19 um 21:29 Uhr)

  2. #Free Download
    Power Free Uploader
    Registriert seit
    16.07.2014
    Beiträge
    2417
     

  3. #2
    balti-hut-warwick.co.uk Pro Member
    Registriert seit
    28.09.14
    Beiträge
    1.633
    Bedankt
    0
    Danke erhalten: 683
    Linkverschlüssler ausgetauscht und wieder online!

Berechtigungen

  • Neue Themen erstellen: Nein
  • Themen beantworten: Nein
  • Anhänge hochladen: Nein
  • Beiträge bearbeiten: Nein
  •