Ergebnis 1 bis 2 von 2

Thema: Cirque du Soleil Corteo 2005 AC3 PAL DVD9 untouched - iND

  1. #1
    balti-hut-warwick.co.uk Pro Member
    Registriert seit
    28.09.14
    Beiträge
    1.633
    Bedankt
    0
    Danke erhalten: 683

    Cirque du Soleil Corteo 2005 AC3 PAL DVD9 untouched - iND



    Cirque du Soleil Corteo 2005 AC3 PAL DVD9 untouched - iND

    “Cirque du Soleil” präsentiert “Corteo”, eine prachtvolle Prozession und festliche Parade, erträumt von einem Clown. Lassen Sie sich entführen in eine Theaterwelt aus Komödie und Spontanität, wie sie nur in jedem geheimnisvollen Raum zwischen Himmel und Erde existieren kann. “Corteo” stellt das Lächerliche neben die Tragik und die Magie der Perfektion neben dem Charme der Unvollkommenheit, zeigt die Stärke und die Zerbrechlichkeit eines Clowns und seine Weisheit und Güte, um den Teil der Menschlichkeit ins Blickfeld zu rücken, den wir alle in uns tragen. “Corteo” ist eine zeitlose und poetische Zelebration, in der die Illusion die Wirklichkeit herausfordert.

    Kurzinfo:
    DVD9 untouched, VOB, PAL, 16:9. Dolby Digital 5.1 und 2.0

    Media-Info:
    Code:
    General
    Complete name                            :Cirque_Du_Solei_Corteo_DVD9\VIDEO_TS\VTS_01_1.VOB
    Format                                   : MPEG-PS
    File size                                : 1 024 MiB
    Duration                                 : 23mn 29s
    Overall bit rate mode                    : Variable
    Overall bit rate                         : 6 096 Kbps
    
    Video
    ID                                       : 224 (0xE0)
    Format                                   : MPEG Video
    Format version                           : Version 2
    Format profile                           : [email protected]
    Format settings, BVOP                    : Yes
    Format settings, Matrix                  : Custom
    Format settings, GOP                     : Variable
    Format settings, picture structure       : Frame
    Duration                                 : 23mn 29s
    Bit rate mode                            : Variable
    Bit rate                                 : 5 335 Kbps
    Maximum bit rate                         : 9 800 Kbps
    Width                                    : 720 pixels
    Height                                   : 480 pixels
    Display aspect ratio                     : 16:9
    Frame rate                               : 29.970 fps
    Standard                                 : NTSC
    Color space                              : YUV
    Chroma subsampling                       : 4:2:0
    Bit depth                                : 8 bits
    Scan type                                : Interlaced
    Scan order                               : Top Field First
    Compression mode                         : Lossy
    Bits/(Pixel*Frame)                       : 0.515
    Time code of first frame                 : 00:59:59;00
    Time code source                         : Group of pictures header
    Stream size                              : 896 MiB (88%)
    
    Audio #1
    ID                                       : 189 (0xBD)-128 (0x80)
    Format                                   : AC-3
    Format/Info                              : Audio Coding 3
    Mode extension                           : CM (complete main)
    Format settings, Endianness              : Big
    Muxing mode                              : DVD-Video
    Duration                                 : 23mn 28s
    Bit rate mode                            : Constant
    Bit rate                                 : 448 Kbps
    Channel(s)                               : 6 channels
    Channel positions                        : Front: L C R, Side: L R, LFE
    Sampling rate                            : 48.0 KHz
    Compression mode                         : Lossy
    Stream size                              : 75.2 MiB (7%)
    
    Audio #2
    ID                                       : 189 (0xBD)-129 (0x81)
    Format                                   : AC-3
    Format/Info                              : Audio Coding 3
    Mode extension                           : CM (complete main)
    Format settings, Endianness              : Big
    Muxing mode                              : DVD-Video
    Duration                                 : 23mn 28s
    Bit rate mode                            : Constant
    Bit rate                                 : 192 Kbps
    Channel(s)                               : 2 channels
    Channel positions                        : Front: L R
    Sampling rate                            : 48.0 KHz
    Compression mode                         : Lossy
    Stream size                              : 32.2 MiB (3%)
    
    Menu


    Dauer: 101 Min | Format: DVD9-VOB| Größe: 7,8 GB

    Download Share-online.biz:

    Passwort:
    movie-blog.org
    Geändert von flossZ (04.01.19 um 21:35 Uhr)

  2. #Free Download
    Power Free Uploader
    Registriert seit
    16.07.2014
    Beiträge
    2417
     

  3. #2
    balti-hut-warwick.co.uk Pro Member
    Registriert seit
    28.09.14
    Beiträge
    1.633
    Bedankt
    0
    Danke erhalten: 683
    Linkverschlüssler ausgetauscht und wieder online!

Berechtigungen

  • Neue Themen erstellen: Nein
  • Themen beantworten: Nein
  • Anhänge hochladen: Nein
  • Beiträge bearbeiten: Nein
  •