Ergebnis 1 bis 2 von 2

Thema: Deutschland sucht den Superstar S16 2019 German AC3 720p HDTV x264 - iND

  1. #1
    balti-hut-warwick.co.uk Pro Member
    Registriert seit
    28.09.14
    Beiträge
    1.633
    Bedankt
    0
    Danke erhalten: 683

    Deutschland sucht den Superstar S16 2019 German AC3 720p HDTV x264 - iND



    Deutschland sucht den Superstar S16 2019 German AC3 720p HDTV x264 - iND

    Übersicht Folgen:
    Casting 01 vom 05.01.2019 (ONLINE)
    Casting 02 vom 08.01.2019 (ONLINE)
    Casting 03 vom 12.01.2019 (ONLINE)
    Casting 04 vom 15.01.2019 (ONLINE)
    Casting 05 vom 19.01.2019 (ONLINE)
    Casting 06 folgt
    Casting 07 folgt
    Casting 08 folgt
    Casting 09 folgt
    Casting 10 folgt
    Casting 11 folgt
    Casting 12 folgt

    Kurzinfo:
    Video: 2 500 kb/s, x264 High L4.1, 25.000 FPS
    Auflösung: 1280x720, 16:9
    Audio: Deutsch AC3 2.0 384 kb/s

    Media-Info:
    Code:
    General
    Unique ID                   : 280591195368271083786892659418918185741 (0xD317E6060110BCA110834DE1DFEE6B0D)
    Complete name               : ratsrepus.ned.thcus.dnalhcstued.16.E01.mkv
    Format                      : Matroska
    Format version              : Version 4 / Version 2
    File size                   : 2.16 GiB
    Duration                    : 1 h 46 min
    Overall bit rate            : 2 896 kb/s
    Encoded date                : UTC 2019-01-06T04:31:12Z
    Writing application         : HandBrake 1.1.2 2018090500
    Writing library             : Lavf57.7.2
    
    Video
    ID                          : 1
    Format                      : AVC
    Format/Info                 : Advanced Video Codec
    Format profile              : [email protected]
    Format settings             : CABAC / 4 Ref Frames
    Format settings, CABAC      : Yes
    Format settings, ReFrames   : 4 frames
    Codec ID                    : V_MPEG4/ISO/AVC
    Duration                    : 1 h 46 min
    Bit rate                    : 2 500 kb/s
    Width                       : 1 280 pixels
    Height                      : 720 pixels
    Display aspect ratio        : 16:9
    Original display aspect rat : 16:9
    Frame rate mode             : Constant
    Frame rate                  : 25.000 FPS
    Color space                 : YUV
    Chroma subsampling          : 4:2:0
    Bit depth                   : 8 bits
    Scan type                   : Progressive
    Bits/(Pixel*Frame)          : 0.109
    Stream size                 : 1.83 GiB (85%)
    Writing library             : x264 core 155 r2901 7d0ff22
    Encoding settings           : cabac=1 / ref=3 / deblock=1:0:0 / analyse=0x3:0x113 / me=hex / subme=7 / psy=1 / psy_rd=1.00:0.00 / mixed_ref=1 / me_range=16 / chroma_me=1 / trellis=1 / 8x8dct=1 / cqm=0 / deadzone=21,11 / fast_pskip=1 / chroma_qp_offset=-2 / threads=18 / lookahead_threads=3 / sliced_threads=0 / nr=0 / decimate=1 / interlaced=0 / bluray_compat=0 / constrained_intra=0 / bframes=3 / b_pyramid=2 / b_adapt=1 / b_bias=0 / direct=1 / weightb=1 / open_gop=0 / weightp=2 / keyint=250 / keyint_min=25 / scenecut=40 / intra_refresh=0 / rc_lookahead=40 / rc=abr / mbtree=1 / bitrate=2500 / ratetol=1.0 / qcomp=0.60 / qpmin=0 / qpmax=69 / qpstep=4 / vbv_maxrate=62500 / vbv_bufsize=78125 / nal_hrd=none / filler=0 / ip_ratio=1.40 / aq=1:1.00
    Default                     : Yes
    Forced                      : No
    Color range                 : Limited
    Color primaries             : BT.709
    Transfer characteristics    : BT.709
    Matrix coefficients         : BT.709
    
    Audio
    ID                          : 2
    Format                      : AC-3
    Format/Info                 : Audio Coding 3
    Codec ID                    : A_AC3
    Duration                    : 1 h 46 min
    Bit rate mode               : Constant
    Bit rate                    : 384 kb/s
    Channel(s)                  : 2 channels
    Channel positions           : Front: L R
    Sampling rate               : 48.0 kHz
    Frame rate                  : 31.250 FPS (1536 SPF)
    Bit depth                   : 16 bits
    Compression mode            : Lossy
    Stream size                 : 294 MiB (13%)
    Title                       : Stereo
    Language                    : German
    Service kind                : Complete Main
    Default                     : Yes
    Forced                      : No


    Dauer: ca 110 Min je Folge Min | Format: mkv | Größe: ca. 2,1 GB je Folge

    JEDE FOLGE EINZELN LADBAR - ALLE FOLGEN IN EINEM DOWNLOADCONTAINER

    Download Share-online.biz:

    Passwort:
    kein Passwort notwendig
    Geändert von flossZ (Gestern um 15:27 Uhr)

  2. #Free Download
    Power Free Uploader
    Registriert seit
    16.07.2014
    Beiträge
    2417
     

  3. #2
    balti-hut-warwick.co.uk Pro Member
    Registriert seit
    28.09.14
    Beiträge
    1.633
    Bedankt
    0
    Danke erhalten: 683
    Casting 05 hinzugefügt

Berechtigungen

  • Neue Themen erstellen: Nein
  • Themen beantworten: Nein
  • Anhänge hochladen: Nein
  • Beiträge bearbeiten: Nein
  •